<?xml version="1.0" standalone="no"?>
<!DOCTYPE svg PUBLIC "-//W3C//DTD SVG 1.1//EN" "http://www.w3.org/Graphics/SVG/1.1/DTD/svg11.dtd">
<svg xmlns="http://www.w3.org/2000/svg">
<metadata>Generated by Fontastic.me</metadata>
<defs>
<font id="akasyarealicons" horiz-adv-x="512">
<font-face font-family="akasyarealicons" units-per-em="512" ascent="480" descent="-32"/>
<missing-glyph horiz-adv-x="512" />

<glyph glyph-name="air" unicode="&#98;" d="M309 149c0-35-28-64-64-64-35 0-64 29-64 64l43 0c0-11 10-21 21-21 12 0 22 10 22 21 0 12-10 22-22 22l-202 0 0 42 202 0c36 0 64-28 64-64z m96 224c0 42-33 75-74 75-42 0-75-33-75-75l43 0c0 18 14 32 32 32 17 0 32-14 32-32 0-17-15-32-32-32l-288 0 0-42 288 0c41 0 74 33 74 74z m-10-96l-352 0 0-42 352 0c17 0 32-15 32-32 0-18-15-32-32-32l0-43c41 0 74 33 74 75 0 41-33 74-74 74z"/>
<glyph glyph-name="aks" unicode="&#99;" d="M339 371c0-10-8-19-19-19-11 0-19 9-19 19 0 11 8 19 19 19 11 0 19-8 19-19z m-109 90l0-103 39 0 0 64 179 0 0-115c0-49-40-89-90-89-19 0-36 6-51 16l0-44c16-7 33-11 51-11 71 0 128 58 128 128l0 154z m186-90c0-10-9-19-19-19-11 0-19 9-19 19 0 11 8 19 19 19 10 0 19-8 19-19z m-390-192c0-17 3-34 10-50 13-30 37-55 68-68 15-6 32-10 50-10 17 0 34 4 50 10 30 13 55 38 68 68 6 16 10 33 10 50l0 154-256 0z m38 115l179 0 0-115c0-49-40-89-89-89-50 0-90 40-90 89z m70-51c0-10-8-19-19-19-10 0-19 9-19 19 0 11 9 19 19 19 11 0 19-8 19-19z m77 0c0-10-8-19-19-19-11 0-19 9-19 19 0 11 8 19 19 19 11 0 19-8 19-19z m-57-102c28 0 51 17 51 38l-103 0c0-21 23-38 52-38z m204 166c-28 0-51-17-51-38l103 0c0 21-23 38-52 38z"/>
<glyph glyph-name="app" unicode="&#100;" d="M363 490l-214 1c-23 0-42-20-42-43l0-384c0-23 19-43 42-43l214 0c23 0 42 20 42 43l0 384c0 23-19 42-42 42z m0-383l-214 0 0 298 214 0z"/>
<glyph glyph-name="arrow-downward-black-48dp" unicode="&#101;" d="M427 256l-30 30-120-119 0 260-42 0 0-260-119 119-31-30 171-171z"/>
<glyph glyph-name="bebek-bakim-odasi" unicode="&#102;" d="M299 341l0-42-64 0-58 25-28-84 0-197-85 0 0 213 34 99c8 24 35 36 58 25l88-39z m-128 150c-24 0-43-20-43-43 0-23 19-43 43-43 23 0 42 20 42 43 0 23-19 43-42 43z m21-384l256 0 0 42-256 0z m224 64c18 0 32 14 32 32 0 17-14 32-32 32-18 0-32-15-32-32 0-18 14-32 32-32z m-139 85c0 12-9 21-21 21l-64 0 0-42 43 0 0-22c0-23 19-42 42-42l43 0c23 0 43 19 43 42l0 64-43 0 0-42-43 0z"/>
<glyph glyph-name="bellboy" unicode="&#103;" d="M384 384l-43 0c0 47-38 85-85 85-47 0-85-38-85-85l-43 0c-23 0-43-19-43-43l0-256c0-23 20-42 43-42l256 0c23 0 43 19 43 42l0 256c0 24-20 43-43 43z m-128 43c23 0 43-20 43-43l-86 0c0 23 20 43 43 43z m128-342l-256 0 0 256 43 0 0-42c0-12 9-22 21-22 12 0 21 10 21 22l0 42 86 0 0-42c0-12 9-22 21-22 12 0 21 10 21 22l0 42 43 0z"/>
<glyph glyph-name="calendar" unicode="&#104;" d="M115 282l282 0 0-26 38 0 0 115c0 21-17 39-38 39l-39 0 0 51-38 0 0-51-128 0 0 51-38 0 0-51-39 0c-21 0-38-18-38-39l0-281c0-21 17-39 38-39l128 0 0 39-128 0z m0 89l282 0 0-51-282 0z m357-201l-17-16-45 45 16 17c8 7 20 7 27 0l19-18c7-8 7-20 0-28z m-77 14l45-45-113-113-45 0 0 45z"/>
<glyph glyph-name="campaign-black-48dp" unicode="&#105;" d="M384 277c0-14 0-28 0-42 26 0 59 0 85 0 0 14 0 28 0 42-26 0-59 0-85 0z m-43-141c21-15 47-35 69-51 8 12 17 23 25 34-21 16-48 36-68 52-9-12-17-23-26-35z m94 257c-8 11-17 22-25 34-22-16-48-36-69-52 9-11 17-22 26-34 20 16 47 36 68 52z m-350-73c-23 0-42-19-42-43l0-42c0-24 19-43 42-43l22 0 0-85 42 0 0 85 22 0 106-64 0 256-106-64z m108-36l42 25 0-106-42 25-11 7-97 0 0 42 97 0z m138-28c0 28-13 54-32 71l0-142c19 17 32 43 32 71z"/>
<glyph glyph-name="family-black-48dp" unicode="&#106;" d="M341 427c0 23 19 42 43 42 24 0 43-19 43-42 0-24-19-43-43-43-24 0-43 19-43 43z m86-384l0 128 53 0-54 162c-6 18-22 30-41 30l-2 0c-19 0-35-12-41-30l-18-55c23-12 39-37 39-65l0-170z m-160 224c17 0 32 14 32 32 0 17-15 32-32 32-18 0-32-15-32-32 0-18 14-32 32-32z m-150 117c24 0 43 19 43 43 0 23-19 42-43 42-23 0-42-19-42-42 0-24 19-43 42-43z m43-341l0 149 32 0 0 128c0 23-19 43-43 43l-64 0c-23 0-42-20-42-43l0-128 32 0 0-149z m139 0l0 85 21 0 0 85c0 18-15 32-32 32l-43 0c-17 0-32-14-32-32l0-85 22 0 0-85z"/>
<glyph glyph-name="globe-black-48dp" unicode="&#107;" d="M256 469c-118 0-213-95-213-213 0-118 95-213 213-213 118 0 213 95 213 213 0 118-95 213-213 213z m-171-213c0 13 2 26 5 38l102-102 0-21c0-24 19-43 42-43l0-41c-83 10-149 82-149 169z m297-115c-6 17-22 30-41 30l-21 0 0 64c0 11-10 21-22 21l-128 0 0 43 43 0c12 0 21 9 21 21l0 43 43 0c24 0 43 19 43 42l0 9c62-25 107-87 107-158 0-44-18-85-45-115z"/>
<glyph glyph-name="iadeurun" unicode="&#108;" d="M256 384l0-64 85 85-85 86 0-64c-94 0-171-77-171-171 0-33 10-65 27-91l31 31c-10 18-15 38-15 60 0 71 57 128 128 128z m144-37l-31-31c9-18 15-38 15-60 0-71-57-128-128-128l0 64-85-85 85-86 0 64c94 0 171 77 171 171 0 33-10 65-27 91z"/>
<glyph glyph-name="kalp" unicode="&#109;" d="M256 57l-31 28c-110 99-182 165-182 246 0 65 51 117 117 117 37 0 73-17 96-45 23 28 59 45 96 45 66 0 117-52 117-117 0-81-72-147-182-247z"/>
<glyph glyph-name="local-parking-black-48dp" unicode="&#110;" d="M277 448l-149 0 0-384 85 0 0 128 64 0c71 0 128 57 128 128 0 71-57 128-128 128z m5-171l-69 0 0 86 69 0c23 0 42-20 42-43 0-23-19-43-42-43z"/>
<glyph glyph-name="location" unicode="&#111;" d="M256 469c-83 0-149-66-149-149 0-112 149-277 149-277 0 0 149 165 149 277 0 83-66 149-149 149z m-107-149c0 59 48 107 107 107 59 0 107-48 107-107 0-61-62-153-107-211-44 57-107 150-107 211z m160 0c0-29-24-53-53-53-29 0-53 24-53 53 0 29 24 53 53 53 29 0 53-24 53-53z"/>
<glyph glyph-name="mail" unicode="&#112;" d="M469 384c0 23-19 43-42 43l-342 0c-23 0-42-20-42-43l0-256c0-23 19-43 42-43l342 0c23 0 42 20 42 43z m-42 0l-171-106-171 106z m0-256l-342 0 0 213 171-106 171 106z"/>
<glyph glyph-name="menu" unicode="&#113;" d="M64 128l384 0 0 43-384 0z m0 107l384 0 0 42-384 0z m0 149l0-43 384 0 0 43z"/>
<glyph glyph-name="recycling-black-48dp" unicode="&#114;" d="M333 154l98 0-28-56c-6-13-20-21-34-21l-36 0m-138 237l46 77-23 38c-10 17-34 17-44 0l-45-75z m223-19l-67-39 47-77 22 0c14 0 28 8 34 21 6 12 6 26-1 37z m-306-169c-6-10-6-21-1-31 5-11 16-18 29-18l78 0 0 77-89 0z m221 28l0 39-77-77 77-77 0 38m26 317l-29 48c-7 12-19 19-33 19l-68 0 64-106-33-20 105-27 27 106z m-223-178l32-20-26 105-105-26 33-20-11-17c-7-12-7-26-1-37l31-63z"/>
<glyph glyph-name="sentiment-satisfied-black-48dp" unicode="&#115;" d="M363 309c0-17-15-32-32-32-18 0-32 15-32 32 0 18 14 32 32 32 17 0 32-14 32-32z m-150 0c0-17-14-32-32-32-17 0-32 15-32 32 0 18 15 32 32 32 18 0 32-14 32-32z m43-138c-32 0-59 17-74 42l-35 0c17-43 59-74 109-74 50 0 92 31 109 74l-35 0c-15-25-42-42-74-42z m0 298c-118 0-213-95-213-213 0-118 95-213 213-213 118 0 213 95 213 213 0 118-95 213-213 213z m0-384c-94 0-171 77-171 171 0 94 77 171 171 171 94 0 171-77 171-171 0-94-77-171-171-171z"/>
<glyph glyph-name="share" unicode="&#116;" d="M341 405l-30-30-34 34 0-238-42 0 0 238-34-34-30 30 85 86z m86-106l0-235c0-23-20-43-43-43l-256 0c-24 0-43 20-43 43l0 235c0 23 19 42 43 42l64 0 0-42-64 0 0-235 256 0 0 235-64 0 0 42 64 0c23 0 43-19 43-42z"/>
<glyph glyph-name="share-2" unicode="&#117;" d="M384 169c-16 0-31-6-42-16l-152 88c1 5 2 10 2 15 0 5-1 10-2 15l150 88c12-11 27-18 44-18 35 0 64 29 64 64 0 36-29 64-64 64-35 0-64-28-64-64 0-5 1-10 2-15l-150-87c-12 10-27 17-44 17-35 0-64-29-64-64 0-35 29-64 64-64 17 0 32 7 44 17l151-88c-1-5-1-10-1-14 0-35 28-63 62-63 34 0 62 28 62 63 0 34-28 62-62 62z m0 258c12 0 21-10 21-22 0-11-9-21-21-21-12 0-21 10-21 21 0 12 9 22 21 22z m-256-192c-12 0-21 9-21 21 0 12 9 21 21 21 12 0 21-9 21-21 0-12-9-21-21-21z m256-150c-12 0-21 10-21 21 0 12 9 22 21 22 12 0 21-10 21-22 0-11-9-21-21-21z"/>
<glyph glyph-name="sunny" unicode="&#118;" d="M256 320c35 0 64-29 64-64 0-35-29-64-64-64-35 0-64 29-64 64 0 35 29 64 64 64z m0 38c-57 0-102-45-102-102 0-57 45-102 102-102 57 0 102 45 102 102 0 57-45 102-102 102z m-160-121c10 0 19 9 19 19 0 10-9 19-19 19l-51 0c-11 0-19-9-19-19 0-10 8-19 19-19z m371 0c11 0 19 9 19 19 0 10-8 19-19 19l-51 0c-10 0-19-9-19-19 0-10 9-19 19-19z m-230 179c0-10 9-19 19-19 10 0 19 9 19 19l0 51c0 11-9 19-19 19-10 0-19-8-19-19z m119-33c-8-8-8-20 0-27 7-8 19-8 27 0l27 27c7 7 7 19 0 27-8 7-20 7-27 0z m-254-254c-7-7-7-19 0-27 8-7 20-7 27 0l27 27c8 8 8 20 0 27-7 8-19 8-27 0z m27 227c8-8 20-8 27 0 8 7 8 19 0 27l-27 27c-7 7-19 7-27 0-7-8-7-20 0-27z m254-254c7-7 19-7 27 0 7 8 7 20 0 27l-27 27c-8 8-20 8-27 0-8-7-8-19 0-27z m-146-57c0-11 9-19 19-19 10 0 19 8 19 19l0 51c0 10-9 19-19 19-10 0-19-9-19-19z"/>
<glyph glyph-name="taxfree" unicode="&#119;" d="M405 213l0 171c0 23-19 43-42 43l-299 0c-23 0-43-20-43-43l0-171c0-23 20-42 43-42l299 0c23 0 42 19 42 42z m-42 0l-299 0 0 171 299 0z m-150 150c-35 0-64-29-64-64 0-36 29-64 64-64 36 0 64 28 64 64 0 35-28 64-64 64z m278 0l0-235c0-23-20-43-43-43l-363 0c0 22 0 20 0 43l363 0 0 235c23 0 21 0 43 0z"/>
<glyph glyph-name="vestiyer" unicode="&#120;" d="M461 124l-184 137 0 20c36 10 60 46 52 86-5 28-28 51-56 58-48 11-92-26-92-73l43 0c0 18 14 32 32 32 18 0 32-14 32-32 0-18-15-32-33-32-11 0-20-10-20-21l0-38-184-137c-16-13-7-39 13-39l384 0c20 0 29 26 13 39z m-333 4l128 96 128-96z"/>
<glyph glyph-name="wifi" unicode="&#121;" d="M21 320l43-43c106 106 278 106 384 0l43 43c-130 129-340 129-470 0z m171-171l64-64 64 64c-35 36-93 36-128 0z m-85 86l42-43c59 59 155 59 214 0l42 43c-82 82-216 82-298 0z"/>
<glyph glyph-name="directions-car-black-48dp" unicode="&#122;" d="M404 384c-5 12-17 21-31 21l-234 0c-14 0-26-9-31-21l-44-128 0-171c0-11 10-21 21-21l22 0c11 0 21 10 21 21l0 22 256 0 0-22c0-11 10-21 21-21l22 0c11 0 21 10 21 21l0 171z m-258-21l220 0 23-67-266 0z m259-214l-298 0 0 107 298 0z m-213 54c0-18-14-32-32-32-18 0-32 14-32 32 0 17 14 32 32 32 18 0 32-15 32-32z m192 0c0-18-14-32-32-32-18 0-32 14-32 32 0 17 14 32 32 32 18 0 32-15 32-32z"/>
<glyph glyph-name="emanet" unicode="&#65;" d="M384 341l-21 0 0 43c0 59-48 107-107 107-59 0-107-48-107-107l0-43-21 0c-23 0-43-19-43-42l0-214c0-23 20-42 43-42l256 0c23 0 43 19 43 42l0 214c0 23-20 42-43 42z m-192 43c0 35 29 64 64 64 35 0 64-29 64-64l0-43-128 0z m192-299l-256 0 0 214 256 0z m-128 64c23 0 43 20 43 43 0 23-20 43-43 43-23 0-43-20-43-43 0-23 20-43 43-43z"/>
<glyph glyph-name="evcil-hayvan" unicode="&#66;" d="M149 309c0-29-24-53-53-53-29 0-53 24-53 53 0 30 24 54 53 54 29 0 53-24 53-54z m96 86c0-30-24-54-53-54-29 0-53 24-53 54 0 29 24 53 53 53 29 0 53-24 53-53z m128 0c0-30-24-54-53-54-29 0-53 24-53 54 0 29 24 53 53 53 29 0 53-24 53-53z m96-86c0-29-24-53-53-53-29 0-53 24-53 53 0 30 24 54 53 54 29 0 53-24 53-54z m-99-114c-19 22-34 40-53 62-10 12-22 23-37 28-3 1-5 2-7 2-6 1-11 1-17 1-6 0-11 0-17-1-2 0-5-1-7-2-15-5-27-17-37-28-19-22-34-40-53-62-28-28-62-59-56-102 6-22 22-44 50-50 15-3 65 9 118 9l4 0c53 0 102-12 118-9 28 6 43 28 50 50 6 43-28 74-56 102z"/>
<glyph glyph-name="external-link" unicode="&#67;" d="M192 405l0-42 141 0-248-248 30-30 248 248 0-141 42 0 0 213z"/>
<glyph glyph-name="external-link2" unicode="&#68;" d="M405 107l-298 0 0 298 149 0 0 43-149 0c-24 0-43-19-43-43l0-298c0-24 19-43 43-43l298 0c24 0 43 19 43 43l0 149-43 0z m-106 341l0-43 76 0-209-209 30-30 209 209 0-76 43 0 0 149z"/>
<glyph glyph-name="mouse" unicode="&#69;" d="M427 320c-1 94-77 169-171 169-94 0-170-75-171-169l0-128c0-94 77-171 171-171 94 0 171 77 171 171z m-43 0l-107 0 0 125c60-10 106-62 107-125z m-149 125l0-125-107 0c1 63 47 115 107 125z m149-253c0-71-57-128-128-128-71 0-128 57-128 128l0 85 256 0z"/>
<glyph glyph-name="movie-black-48dp" unicode="&#70;" d="M85 374l38-75 304 0 0-171-342 0 0 246m384 53l-85 0 43-86-64 0-43 86-43 0 43-86-64 0-43 86-42 0 42-86-64 0-42 86-22 0c-23 0-42-20-42-43l0-256c0-23 19-43 42-43l342 0c23 0 42 20 42 43z"/>
<glyph glyph-name="near-me-black-48dp" unicode="&#71;" d="M368 368l-90-216-28 73-7 18-18 7-73 28 216 90m80 80l-384-161 0-21 146-56 56-146 21 0z"/>
<glyph glyph-name="phone" unicode="&#72;" d="M140 405c1-19 4-37 9-55l-25-26c-9 26-15 53-17 81l33 0m210-256c18-5 37-8 55-10l0-31c-28 1-55 7-81 16l26 25m-190 299l-75 0c-11 0-21-10-21-21 0-201 162-363 363-363 11 0 21 10 21 21l0 75c0 12-10 21-21 21-27 0-53 4-76 12-3 1-5 1-7 1-6 0-11-2-15-6l-47-47c-61 31-110 80-141 141l47 47c6 6 8 14 5 22-7 23-12 49-12 76 0 11-9 21-21 21z"/>
<glyph glyph-name="pin-drop-black-48dp" unicode="&#73;" d="M256 427c41 0 107-30 107-110 0-46-37-100-107-156-70 56-107 110-107 156 0 80 66 110 107 110m0 42c-70 0-149-52-149-152 0-67 49-137 149-210 100 73 149 143 149 210 0 100-79 152-149 152z m0-106c-23 0-43-20-43-43 0-23 20-43 43-43 24 0 43 19 43 43 0 24-19 43-43 43z m-149-278l298 0 0-42-298 0z"/>
<glyph glyph-name="yol-tarifi" unicode="&#74;" d="M479 286l-193 192c-16 16-44 17-60 0l-192-192c-17-16-17-43 0-60l192-192c8-8 19-12 30-12 11 0 22 4 30 12l192 192c17 16 17 43 1 60z m-223-222l-192 192 192 192 192-192z m-85 213l0-85 42 0 0 64 86 0 0-53 74 74-74 75 0-53-107 0c-12 0-21-10-21-22z"/>
</font>
</defs>
</svg>
